BJW Big Japan Death Vegas 2019 [VIP USERs]

BJW 2019 09 15 Big Japan Death Vegas 2019 720p

dOWNLOAD BJW 2019 09 15 Big Japan Death Vegas 2019

DescriptionBJW Big Japan Death Vegas 2019
(9/15/19)
Yokohama, Kanagawa, Japan
Yokohama Bunka Gymnasium
1,375 Fans
Takuho Kato & Akira Hyodo vs. Masaki Morihiro & Kosuke Sato

Kobayashi Gundan (Abdullah Kobayashi, Hideki Suzuki, Orca Uto & Drew parker)
& Shinobi vs. Frank Atsushi, Kazuki Hashimoto, Tatsuhiko Yoshino, Kota Sekifuda &
Takeda Mitsuda

Yuji Okabayashi, Ryota Hama & Yasufumi Nakanoue vs.
Ryuichi Kawakami, Kazumi Kikuta & Daichi Hashimoto

4-way Tag Team Deathmatch
Ryuji Ito & Yuko Miyamoto vs. Crazy Lovers (Masashi Takeda & Takumi Tsukamoto)

vs. Masaya Takahashi & Gumba-chan vs. Kankuro Hoshino & Yuki Ishikawa

BJW Junior Heavyweight Championship
Tajiri (c) vs. Yuya Aoki

Saikyo Tag League Strong Block Match
Daisuke Sekimoto & The Bodyguard vs. The Astronauts
(Takuya Nomura & Fuminori Abe)

BJW Strong World Heavyweight Championship
Kohei Sato (c) vs. Hideyoshi Kamitani

BJW Deathmatch Heavyweight Championship Flourescent Light Scaffold
+ α deathmatch
Isami Kodaka (c) vs. Toshiyuki Sakuda

General
Complete name : 2019.09.15.BJW.Big.Japan.Death.Vegas.2019.mp4
Format : MPEG-4
Format profile : Base Media
Codec ID : isom
File size : 4.39 GiB
Duration : 3h 45mn
Overall bit rate : 2 792 Kbps
Writing application : Lavf57.84.100

Video
ID : 1
Format : AVC
Format/Info : Advanced Video Codec
Format profile : [email protected]
Format settings, CABAC : Yes
Format settings, ReFrames : 4 frames
Format settings, GOP : M=4, N=16
Codec ID : avc1
Codec ID/Info : Advanced Video Coding
Duration : 3h 45mn
Duration_LastFrame : -23ms
Bit rate mode : Variable
Bit rate : 2 648 Kbps
Width : 1 280 pixels
Height : 720 pixels
Display aspect ratio : 16:9
Frame rate mode : Constant
Frame rate : 60.000 fps
Color space : YUV
Chroma subsampling : 4:2:0
Bit depth : 8 bits
Scan type : Progressive
Bits/(Pixel*Frame) : 0.048
Stream size : 4.17 GiB (95%)
Writing library : x264 core 148 r2762 90a61ec

Audio
ID : 2
Format : AAC
Format/Info : Advanced Audio Codec
Format profile : LC
Codec ID : 40
Duration : 3h 45mn
Bit rate mode : Constant
Bit rate : 128 Kbps
Channel(s) : 2 channels
Channel positions : Front: L R
Sampling rate : 44.1 KHz
Compression mode : Lossy
Stream size : 206 MiB (5%)

download

ONE LINK DOWNLOAD

1fichier

https://1fichier.com/?a138ce21aha1q1mtdrf8

4downfiles
https://4downfiles.org/jcyre4hwacpv

dl.free.fr
http://dl.free.fr/vjl5gzd88

earn4files
https://earn4files.com/rsmm70syqa9p

userscloud

https://userscloud.com/diiux5ig5los

fileup
https://fileup.cc/0oqzuolh2z3a

multiup
https://multiup.org/download/af44116b51192f7a9140ca116f24943d

nitroflare
http://nitroflare.com/view/C186C164E3DCDE2

rapidgator
https://rapidgator.net/file/e8edfa3671e3110a5a80c9c2a31ebb47

uploadgig
https://uploadgig.com/file/download/f12ee2A541F4B848

1 GB [5 PARTS] // INTERCHANGEABLE LINKs]

4downfiles

https://4downfiles.org/5mbs49guzh0q
https://4downfiles.org/nid7qom83dbm
https://4downfiles.org/6ce4sdwaluf2
https://4downfiles.org/a5drih10w6bc
https://4downfiles.org/f1r4t9uspw9d

bdupload
https://dl.bdupload.in/x3rdcc5iuepp
https://dl.bdupload.in/k9r0fxv5hicl
https://dl.bdupload.in/r1mg5zp5tjv8
https://dl.bdupload.in/4v268uw7c558
https://dl.bdupload.in/ihwy4jjj5f71

ddl.to
https://ddl.to/xqp9ptw8hbco
https://ddl.to/mc6k05f8vo3d
https://ddl.to/1bn2l5fjeyqd
https://ddl.to/032h3rj9d4ur
https://ddl.to/mzwroujvw8xu

earn4files
https://earn4files.com/vwbobx5mn8bc
https://earn4files.com/ym7p9zsuhtts
https://earn4files.com/hdu541yvrljo
https://earn4files.com/xku6n054eutc
https://earn4files.com/hpjd0yi60rjb

uptomega
https://uptomega.com/2k22n3cdrdby
https://uptomega.com/tefi1a5eixec
https://uptomega.com/fexjqv6m3zgl
https://uptomega.com/eeq2ieojyqp2
https://uptomega.com/rhwt8dj7uy0e

One Comment on “BJW Big Japan Death Vegas 2019 [VIP USERs]”

Leave a Reply

Your email address will not be published. Required fields are marked *