Bellator 226 Bader vs Kongo 1080p IPTV h264-lulz

Bellator 226 Bader vs Kongo 1080p IPTV h264-lulz

download Bellator 226 Bader vs Kongo 1080p

General

Complete name                            : Bellator.226.Bader.vs.Kongo.1080p.IPTV.h264-lulz.mkv
Format                                  : Matroska
Format version                          : Version 4 / Version 2
File size                                : 4.33 GiB
Duration                                : 2 h 41 min
Overall bit rate                        : 3 843 kb/s
Encoded date                            : UTC 2019-09-08 06:05:27
Writing application                      : mkvmerge v28.2.0 (‘The Awakening’) 64-bit
Writing library                          : libebml v1.3.6 + libmatroska v1.4.9

Video
ID                                      : 1
Format                                  : AVC
Format/Info                              : Advanced Video Codec
Format profile                          : [email protected]
Format settings                          : CABAC / 1 Ref Frames
Format settings, CABAC                  : Yes
Format settings, RefFrames              : 1 frame
Format settings, GOP                    : M=1, N=30
Codec ID                                : V_MPEG4/ISO/AVC
Duration                                : 2 h 41 min
Bit rate                                : 3 581 kb/s
Width                                    : 1 920 pixels
Height                                  : 1 080 pixels
Display aspect ratio                    : 16:9
Frame rate mode                          : Variable
Frame rate                              : 59.655 FPS
Color space                              : YUV
Chroma subsampling                      : 4:2:0
Bit depth                                : 8 bits
Scan type                                : Progressive
Bits/(Pixel*Frame)                      : 0.029
Stream size                              : 4.03 GiB (93%)
Default                                  : Yes
Forced                                  : No

Audio
ID                                      : 2
Format                                  : AAC
Format/Info                              : Advanced Audio Codec
Format profile                          : LC
Codec ID                                : A_AAC-2
Duration                                : 2 h 41 min
Bit rate                                : 256 kb/s
Channel(s)                              : 2 channels
Channel positions                        : Front: L R
Sampling rate                            : 44.1 kHz
Frame rate                              : 43.066 FPS (1024 SPF)
Compression mode                        : Lossy
Delay relative to video                  : 4 ms
Stream size                              : 295 MiB (7%)

Default                                  : Yes
Forced                                  : No

ONE LINK DOWNLOAD

====== RAPIDGATOR ======
https://rapidgator.net/file/9f88c7c4290c4c8141a0bdb720cffa1f/Bellator.226.Bader.vs.Kongo.1080p.IPTV.h264-lulz.mkv


====== Nitroflare ======
http://nitroflare.com/view/56B980342EC92DD/Bellator.226.Bader.vs.Kongo.1080p.IPTV.h264-lulz.mkv


1GB Parts Download – 5Parts Download – Links are Interchangeable


====== Earn4Files ======
https://earn4files.com/w4awcigpeb3x
https://earn4files.com/283u9x8y8yvh
https://earn4files.com/fv35ycg6ithq
https://earn4files.com/e82adipp7o0a
https://earn4files.com/c7tdgk0t4aou


====== Rockfile ======
http://rockfile.co/v657rtsnz5ry.html
http://rockfile.co/2dmn8licezu7.html
http://rockfile.co/zpqr9pttm8gx.html
http://rockfile.co/e78gkzxeyh6q.html
http://rockfile.co/i9o209ss9949.html


====== Dropapk ======
https://dropapk.to/kzfh5vc60vb7
https://dropapk.to/2j4llixal7t7
https://dropapk.to/6xyjhkk5ims4
https://dropapk.to/uyhb4vopwnml
https://dropapk.to/kikqp6czt421


====== ddl.to ======
https://ddl.to/ao1682f2h1cw
https://ddl.to/ti63ea6l3g74
https://ddl.to/eisoi2cgxyhq
https://ddl.to/dpegf5j689ch
https://ddl.to/wlbs1p1704gt


====== 4Downfiles ======
https://4downfiles.org/w37h3bveo2iq
https://4downfiles.org/50cifatyclym
https://4downfiles.org/ewgjopegs4st
https://4downfiles.org/70u64nb59bxx
https://4downfiles.org/gxuf3feqcpz9


====== ClicknUpload ======
https://clicknupload.org/cgmy2evo71ud
https://clicknupload.org/ql8jqwlowowe
https://clicknupload.org/6ea52kgkywe3
https://clicknupload.org/5e1zp24ii49i
https://clicknupload.org/a7ymqi93pwbm


====== Mexa.sh ======
https://mexa.sh/l2z7aqcenl6s/Bellator.226.Bader.vs.Kongo.1080p.IPTV.h264-lulz.part1.rar.html
https://mexa.sh/ee9uf81agxdn/Bellator.226.Bader.vs.Kongo.1080p.IPTV.h264-lulz.part2.rar.html
https://mexa.sh/t8xpk8731v4y/Bellator.226.Bader.vs.Kongo.1080p.IPTV.h264-lulz.part3.rar.html
https://mexa.sh/9cvany0hsl1u/Bellator.226.Bader.vs.Kongo.1080p.IPTV.h264-lulz.part4.rar.html
https://mexa.sh/37aj8hoa3dnc/Bellator.226.Bader.vs.Kongo.1080p.IPTV.h264-lulz.part5.rar.html


====== RAPIDGATOR ======
https://rapidgator.net/file/7fa51d7bd47e5c378db3b7034061bbd2/Bellator.226.Bader.vs.Kongo.1080p.IPTV.h264-lulz.part1.rar
https://rapidgator.net/file/f2b82ae8b9aa5623edad1fb5828f2e4f/Bellator.226.Bader.vs.Kongo.1080p.IPTV.h264-lulz.part2.rar
https://rapidgator.net/file/3aa1e72d9cd488c358085893bdfc9b4d/Bellator.226.Bader.vs.Kongo.1080p.IPTV.h264-lulz.part3.rar
https://rapidgator.net/file/b61d3168b3ef58c68617f1e1f35893a4/Bellator.226.Bader.vs.Kongo.1080p.IPTV.h264-lulz.part4.rar
https://rapidgator.net/file/b960a5d2b6f6a6aaee2059c1c5b0e978/Bellator.226.Bader.vs.Kongo.1080p.IPTV.h264-lulz.part5.rar

Leave a Reply

Your email address will not be published. Required fields are marked *