One Comment on “Bellator 221 Prelims 720p WEB h264-lulz”

  1. Prelims.

    General
    Complete name : Bellator.221.Prelims.720p.WEB.h264-lulz.mkv
    Format : Matroska
    Format version : Version 4 / Version 2
    File size : 3.24 GiB
    Duration : 2 h 8 min
    Overall bit rate : 3 606 kb/s
    Encoded date : UTC 2019-05-12 05:42:22
    Writing application : mkvmerge v28.2.0 (‘The Awakening’) 64-bit
    Writing library : libebml v1.3.6 + libmatroska v1.4.9

    Video
    ID : 1
    Format : AVC
    Format/Info : Advanced Video Codec
    Format profile : [email protected]
    Format settings : CABAC / 1 Ref Frames
    Format settings, CABAC : Yes
    Format settings, RefFrames : 1 frame
    Codec ID : V_MPEG4/ISO/AVC
    Duration : 2 h 8 min
    Bit rate : 3 474 kb/s
    Width : 1 280 pixels
    Height : 720 pixels
    Display aspect ratio : 16:9
    Frame rate mode : Constant
    Frame rate : 50.000 FPS
    Color space : YUV
    Chroma subsampling : 4:2:0
    Bit depth : 8 bits
    Scan type : Progressive
    Bits/(Pixel*Frame) : 0.075
    Stream size : 3.12 GiB (96%)
    Default : Yes
    Forced : No

    Audio
    ID : 2
    Format : AAC
    Format/Info : Advanced Audio Codec
    Format profile : LC
    Codec ID : A_AAC-2
    Duration : 2 h 8 min
    Bit rate : 128 kb/s
    Channel(s) : 2 channels
    Channel positions : Front: L R
    Sampling rate : 48.0 kHz
    Frame rate : 46.875 FPS (1024 SPF)
    Compression mode : Lossy
    Delay relative to video : 19 ms
    Stream size : 118 MiB (4%)
    Default : Yes
    Forced : No

    https://1fichier.com/?b5dmx1v1utnp1m51qj90
    https://anonfile.com/Sai01dqfn3
    https://bayfiles.com/n2va13qdnf
    https://bitster.cz/file/a3100a
    http://dl.free.fr/mkyIf88YN
    https://file.bz/7du316qcnb
    https://filerio.in/q65fj1tuiwcw
    https://filescdn.net/dzj70ta5ywgd
    https://multiup.org/download/cf9c9d77a65a1c52ce23ef72e264b903/Bellator.221.Prelims.720p.WEB.h264-lulz.mkv
    http://nitroflare.com/view/5AED598F5407930/Bellator.221.Prelims.720p.WEB.h264-lulz.mkv
    https://openload.co/f/eGY6Xc8xgH8/Bellator.221.Prelims.720p.WEB.h264-lulz.mkv
    https://turbobit.net/oljlz2ic8k7k.html
    https://uploadgig.com/file/download/1e39E9980d7bb735/Bellator.221.Prelims.720p.WEB.h264-lulz.mkv

Leave a Reply

Your email address will not be published.