One Comment on “Bellator 221 720p WEB h264-lulz”

  1. Main card.

    General
    Complete name : Bellator.221.720p.WEB.h264-lulz.mkv
    Format : Matroska
    Format version : Version 4 / Version 2
    File size : 3.85 GiB
    Duration : 2 h 38 min
    Overall bit rate : 3 485 kb/s
    Encoded date : UTC 2019-05-12 05:35:05
    Writing application : mkvmerge v28.2.0 (‘The Awakening’) 64-bit
    Writing library : libebml v1.3.6 + libmatroska v1.4.9

    Video
    ID : 1
    Format : AVC
    Format/Info : Advanced Video Codec
    Format profile : [email protected]
    Format settings : CABAC / 1 Ref Frames
    Format settings, CABAC : Yes
    Format settings, RefFrames : 1 frame
    Codec ID : V_MPEG4/ISO/AVC
    Duration : 2 h 38 min
    Bit rate : 3 354 kb/s
    Width : 1 280 pixels
    Height : 720 pixels
    Display aspect ratio : 16:9
    Frame rate mode : Variable
    Frame rate : 50.000 FPS
    Color space : YUV
    Chroma subsampling : 4:2:0
    Bit depth : 8 bits
    Scan type : Progressive
    Bits/(Pixel*Frame) : 0.073
    Stream size : 3.71 GiB (96%)
    Default : Yes
    Forced : No

    Audio
    ID : 2
    Format : AAC
    Format/Info : Advanced Audio Codec
    Format profile : LC
    Codec ID : A_AAC-2
    Duration : 2 h 38 min
    Bit rate : 128 kb/s
    Channel(s) : 2 channels
    Channel positions : Front: L R
    Sampling rate : 48.0 kHz
    Frame rate : 46.875 FPS (1024 SPF)
    Compression mode : Lossy
    Delay relative to video : 19 ms
    Stream size : 145 MiB (4%)
    Default : Yes
    Forced : No

    https://1fichier.com/?nvkpfr008nqmxs90ltxc
    https://anonfile.com/ZfLe0bq3n2
    https://bayfiles.com/X7d412q0nf
    https://bitster.cz/file/acc6b1
    http://dl.free.fr/ovUyfyAhT
    https://file.bz/tffc1aq1n0
    https://filerio.in/epuispkcavjn
    https://filescdn.net/e0y4xdzz3y1o
    https://multiup.org/download/a5c99a7bc8f5de83ec7937918a74d468/Bellator.221.720p.WEB.h264-lulz.mkv
    http://nitroflare.com/view/41625F49B20E17E/Bellator.221.720p.WEB.h264-lulz.mkv
    https://openload.co/f/zOSya-XqHFo/Bellator.221.720p.WEB.h264-lulz.mkv
    https://turbobit.net/vvkwviizmwjq.html
    https://uploadgig.com/file/download/6cab01218D543b03/Bellator.221.720p.WEB.h264-lulz.mkv

Leave a Reply

Your email address will not be published. Required fields are marked *