2 Comments on “Bellator 220 Prelims / Postlims Single Fights 720p”

  1. Description:

    Format : MPEG-4
    Format profile : Base Media
    Codec ID : isom (isom/iso2/avc1/mp41)
    Overall bit rate mode : Variable
    Overall bit rate : 1 978 kb/s
    Writing application : Lavf58.20.100

    Video
    ID : 1
    Format : AVC
    Format/Info : Advanced Video Codec
    Format profile : [email protected]
    Format settings : CABAC / 2 Ref Frames
    Format settings, CABAC : Yes
    Format settings, ReFrames : 2 frames
    Format settings, GOP : M=3, N=30
    Codec ID : avc1
    Codec ID/Info : Advanced Video Coding
    Duration : 3 min 40 s
    Bit rate mode : Variable
    Bit rate : 1 778 kb/s
    Maximum bit rate : 1 800 kb/s
    Width : 1 280 pixels
    Height : 720 pixels
    Display aspect ratio : 16:9
    Frame rate mode : Constant
    Frame rate : 29.970 (30000/1001) FPS
    Color space : YUV
    Chroma subsampling : 4:2:0
    Bit depth : 8 bits
    Scan type : Progressive
    Bits/(Pixel*Frame) : 0.064
    Stream size : 46.7 MiB (90%)

    Audio
    ID : 2
    Format : AAC
    Format/Info : Advanced Audio Codec
    Format profile : LC
    Codec ID : mp4a-40-2
    Duration_LastFrame : -15 ms
    Bit rate mode : Constant
    Bit rate : 192 kb/s
    Channel(s) : 2 channels
    Channel positions : Front: L R
    Sampling rate : 44.1 kHz
    Frame rate : 43.066 FPS (1024 SPF)
    Compression mode : Lossy
    Stream size : 5.04 MiB (10%)
    Default : Yes
    Alternate group : 1

Leave a Reply

Your email address will not be published. Required fields are marked *