Bellator.217.576i.PDTV.MPEG2-lulz

Bellator.217.576i.PDTV.MPEG2-lulz

Capped from Sky Sports Action (SD) (Cable).

General
ID                                       : 1 (0x1)
Complete name                            : Bellator.217.576i.PDTV.MPEG2-lulz.ts
Format                                   : MPEG-TS
File size                                : 5.94 GiB
Duration                                 : 1 h 41 min
Overall bit rate mode                    : Variable
Overall bit rate                         : 8 353 kb/s

Video
ID                                       : 601 (0x259)
Menu ID                                  : 206 (0xCE)
Format                                   : MPEG Video
Format version                           : Version 2
Format profile                           : [email protected]
Format settings                          : CustomMatrix / BVOP
Format settings, BVOP                    : Yes
Format settings, Matrix                  : Custom
Format settings, GOP                     : Variable
Format settings, picture structure       : Frame
Codec ID                                 : 2
Duration                                 : 1 h 41 min
Bit rate mode                            : Variable
Bit rate                                 : 7 811 kb/s
Maximum bit rate                         : 15.0 Mb/s
Width                                    : 704 pixels
Height                                   : 576 pixels
Display aspect ratio                     : 16:9
Active Format Description                : Full frame 16:9 image
Frame rate                               : 25.000 FPS
Standard                                 : PAL
Color space                              : YUV
Chroma subsampling                       : 4:2:0
Bit depth                                : 8 bits
Scan type                                : Interlaced
Scan order                               : Top Field First
Compression mode                         : Lossy
Bits/(Pixel*Frame)                       : 0.770
Time code of first frame                 : 00:00:00:00
Time code source                         : Group of pictures header
GOP, Open/Closed                         : Open
GOP, Open/Closed of first frame          : Closed
Stream size                              : 5.56 GiB (94%)

Audio
ID                                       : 611 (0x263)
Menu ID                                  : 206 (0xCE)
Format                                   : MPEG Audio
Format version                           : Version 1
Format profile                           : Layer 2
Codec ID                                 : 3
Duration                                 : 1 h 41 min
Bit rate mode                            : Constant
Bit rate                                 : 128 kb/s
Channel(s)                               : 2 channels
Sampling rate                            : 48.0 kHz
Frame rate                               : 41.667 FPS (1152 SPF)
Compression mode                         : Lossy
Delay relative to video                  : 6 ms
Stream size                              : 93.3 MiB (2%)
Language                                 : English

1 GB Parts // Interchangable links

https://1fichier.com/?mlwascm2727oa803sqmu
https://1fichier.com/?tjvcxnz91av9j8quz9dr
https://1fichier.com/?cgfa04p2lz1njoup6wbt
https://1fichier.com/?yv3txxhpn0odaenv0fdi
https://1fichier.com/?dc1h3t001537lfnjjgsp
https://1fichier.com/?gw4vdmwh4071v5war3f4


https://anonfile.com/g0J2U3ufb6/Bellator.217.576i.PDTV.MPEG2-lulz.part1_rar
https://anonfile.com/WfI4U6uabd/Bellator.217.576i.PDTV.MPEG2-lulz.part2_rar
https://anonfile.com/h4J4U9ucb9/Bellator.217.576i.PDTV.MPEG2-lulz.part3_rar
https://anonfile.com/c3JcU1ubbb/Bellator.217.576i.PDTV.MPEG2-lulz.part4_rar
https://anonfile.com/p1JdU9u1b0/Bellator.217.576i.PDTV.MPEG2-lulz.part5_rar
https://anonfile.com/l8J1Ueu4b0/Bellator.217.576i.PDTV.MPEG2-lulz.part6_rar


https://ddl.to/8q176cyu7ia3
https://ddl.to/e56pn2pl6p5v
https://ddl.to/t9exbuklj3ju
https://ddl.to/1uatbp509s0y
https://ddl.to/s12z7p5audgq
https://ddl.to/yapn2sjbqbqr


http://dl.free.fr/giaeB6CcC
http://dl.free.fr/kGXTauobI
http://dl.free.fr/oS9mDQXwm
http://dl.free.fr/g0ebJNBs2
http://dl.free.fr/j219bKqrp
http://dl.free.fr/kUqnoBwuQ

Leave a Reply

Your email address will not be published.