AEW Road to Double or Nothing 2020 05 04 1080p

AEW Road to Double or Nothing 2020 05 04 1080p

AEW Road to Double or Nothing 2020 05 04 1080p

General
Complete name : AEW- Road to Double or Nothing 04.05.20 (1080p_24fps_H264-128kbit_AAC).mp4
Format : MPEG-4
Format profile : Base Media
File size : 263 MiB
Duration : 11 min 1 s
Overall bit rate : 3 339 kb/s

Video
ID : 1
Format : AVC
Duration : 11 min 1 s
Bit rate : 3 206 kb/s
Width : 1 920 pixels
Height : 1 080 pixels
Display aspect ratio : 16:9
Frame rate mode : Constant
Frame rate : 23.976 (24000/1001) FPS
Color space : YUV
Chroma subsampling : 4:2:0
Bit depth : 8 bits
Scan type : Progressive
Bits/(Pixel*Frame) : 0.064
Stream size : 253 MiB (96%)

Audio
ID : 2
Format : AAC LC
Codec ID : mp4a-40-2
Duration : 11 min 1 s
Bit rate mode : Constant
Bit rate : 128 kb/s
Channel(s) : 2 channels
Channel layout : L R
Sampling rate : 44.1 kHz
Frame rate : 43.066 FPS (1024 SPF)
Compression mode : Lossy
Stream size : 10.1 MiB (4%)
Language : English

 106 total views,  3 views today

AEW Road to Double or Nothing 2020 05 04 1080p

Buy Premium or Extend From here to Support WH

About PH.M.H

[Wrestling Best Uploader]

View all posts by PH.M.H

One Comment on “AEW Road to Double or Nothing 2020 05 04 1080p”

Leave a Reply

Your email address will not be published. Required fields are marked *