AEW Dynamite S01E18 2020 02 05 720p AVCHD-SC-SDH

AEW Dynamite S01E18 2020 02 05 720p AVCHD-SC-SDH

AEW Dynamite S01E18 2020 02 05 720p AVCHD-SC-SDH

AEW Dynamite S01E18 2020 02 05 720p AVCHD-SC-SDH

All Elite Wrestling
Wednesday Night Dynamite
S01E18
Von Braun Center
Huntsville, Alabama
February 5, 2020

Cody Rhodes comes to the ring

MJF comes to the ring

Kip Sabian with Penelope Ford
vs
Joey Janela

Kenny Omega, Adam Page, and The Young Bucks
vs
The Butcher, The Blade, and Lucha Bros with The Bunny

Britt Baker
vs
Yuka Sakazaki

SCU
vs
Best Friends with Orange Cassidy

Jon Moxley
vs
Ortiz

Jim Ross, Tony Schiavone, Excalibur call the action

General
Complete name : AEW Dynamite S01E18 2020-02-05 720p AVCHD-SC-SDH.mp4
Format : MPEG-4
Codec ID : isom (isom/iso2/avc1/mp41)
File size : 2.98 GiB
Duration : 1 h 28 min
bit rate : 4 809 kb/s
Writing application : Lavf54.63.104

Video
Duration : 1 h 28 min
Bit rate mode : Variable
Bit rate : 4 420 kb/s
Maximum bit rate : 8 480 kb/s
Width : 1 280 pixels
Height : 720 pixels
Display aspect ratio : 16:9
Frame rate mode : Variable
Frame rate : 29.970 (30000/1001) FPS
Minimum frame rate : 29.970 FPS
Maximum frame rate : 30.000 FPS
Color space : YUV
Chroma subsampling : 4:2:0
Bit depth : 8 bits
Scan type : Progressive
Bits/(Pixel*Frame) : 0.160
Stream size : 2.74 GiB (92%)
Color range : Limited
Color primaries : BT.709
Transfer characteristics : BT.709
Matrix coefficients : BT.709
Codec configuration box : avcC

Audio
Duration : 1 h 28 min
Duration_LastFrame : -21 ms
Bit rate mode : Variable
Bit rate : 384 kb/s
Channel(s) : 2 channels
Channel layout : L R
Sampling rate : 48.0 kHz
Frame rate : 46.875 FPS (1024 SPF)
Compression mode : Lossy
Stream size : 242 MiB (8%)
Language : English
Default : Yes
Alternate group : 1

This is SDH release #3,431 for the wrestling fans from a wrestling fan. First aired and captured from HDMI in H264 AVCHD at 8,000 kbps from the 16:9 widescreen 1280 x 720p HD resolution source on 02/05/2020 on the TNT HD channel on Cox Digital HD cable. The Framerate is 29.970 with an average Video Bitrate of 4,500 kbps in a High Quality 2.98 GB 720p H264 AVCHD MP4 release with 48khz 384 kbps AAC 2 channel stereo audio the show runtime is 1:28:51

This is my 2,701st official H264 AVCHD 720p release. Enjoy the AEW show in 720p AEW wrestling fans.

This release is in H264 AVCHD MP4 format with AAC 2 channel stereo audio. This release is playable with Sony Playstation 3, Playstation 4, Xbox 360, Xbox One, Samsung Galaxy S III, S4, S5, S6, S7, S8, S9, S10 smartphones, iPhone, iPad, VLC player as well as Media Player Classic, Windows Media Player, also LG, Samsung, and Philips BluRay players, and any other devices capable of playing 720p HD MP4 video files with AAC 2 channel stereo audio.

wv

 101 total views,  1 views today

AEW Dynamite S01E18 2020 02 05 720p AVCHD-SC-SDH

WH : Source OF Wrestling Releases / Home OF WH Releases

Buy Premium or Renew From WH Links to Keep it Alive

About PH.M.H

[Wrestling Best Uploader]

View all posts by PH.M.H →