AEW Dynamite 2019 12 04 1080p HDTV x264-WH [9.5 GB]

AEW Dynamite 2019 12 04 1080p HDTV x264-WH

AEW Dynamite 2019 12 04 1080p HDTV x264-WH [9.5 GB]
DescriptionGeneral
Complete name                    : AEW.Dynamite.2019.12.04.1080p.HDTV.x264-WH.mp4
Format                          : MPEG-4
Format profile                  : Base Media
Codec ID                        : isom
File size                        : 9.47 GiB
Duration                        : 1h 49mn
Overall bit rate                : 12.3 Mbps
Writing application              : Lavf56.15.102

Video
ID                              : 1
Format                          : AVC
Format/Info                      : Advanced Video Codec
Format profile                  : [email protected]
Format settings, CABAC          : No
Format settings, ReFrames        : 2 frames
Codec ID                        : avc1
Codec ID/Info                    : Advanced Video Coding
Duration                        : 1h 49mn
Bit rate mode                    : Variable
Bit rate                        : 12.0 Mbps
Width                            : 1 920 pixels
Height                          : 1 080 pixels
Display aspect ratio            : 16:9
Frame rate mode                  : Constant
Frame rate                      : 29.970 fps
Color space                      : YUV
Chroma subsampling              : 4:2:0
Bit depth                        : 8 bits
Scan type                        : Progressive
Bits/(Pixel*Frame)              : 0.193
Stream size                      : 9.22 GiB (97%)
Writing library                  : x264 core 142

Audio
ID                              : 2
Format                          : AAC
Format/Info                      : Advanced Audio Codec
Format profile                  : LC
Codec ID                        : 40
Duration                        : 1h 49mn
Bit rate mode                    : Constant
Bit rate                        : 320 Kbps
Channel(s)                      : 6 channels
Channel positions                : Front: L C R, Side: L R, LFE
Sampling rate                    : 44.1 KHz
Compression mode                : Lossy
Stream size                      : 252 MiB (3%)
Language                        : English
AEW Dynamite 2019 12 04 1080p HDTV x264-WH [9.5 GB]
AEW Dynamite 2019 12 04 1080p HDTV x264-WH [9.5 GB]
AEW Dynamite 2019 12 04 1080p HDTV x264-WH [9.5 GB]



fileup
fileup.cc/tlw4ag9x6v4h

nitroflare
nitroflare.com/view/407E7B8EB03D621

uploadgig
uploadgig.com/file/download/fFe35a660bb60270

rapidgator
rapidgator.net/file/32d60f3636c21d440679683d133a2eec

 145 total views,  1 views today

AEW Dynamite 2019 12 04 1080p HDTV x264-WH [9.5 GB]

WH : Source OF Wrestling Releases / Home OF WH Releases

Buy Premium or Renew From WH Links to Keep it Alive

About PH.M.H

[Wrestling Best Uploader]

View all posts by PH.M.H →

Leave a Reply

Your email address will not be published. Required fields are marked *