AEW Revolution 2020 1080p HDTV

AEW Revolution 2020 1080p HDTV x264-kneidinator

AEW Revolution 2020 1080p HDTV x264-kneidinator [50FPS – Multi Audio]

AEW Revolution 2020 1080p HDTV

German / English Audio

General
Complete name : AEW.Revolution.2020.1080p.HDTV.x264-kneidinator.mp4
Format : MPEG-4
Format profile : Base Media
Codec ID : isom (isom/iso2/avc1/mp41)
File size : 9.91 GiB
Duration : 3 h 32 min
Overall bit rate : 6 690 kb/s
Writing application : Lavf58.20.100

Video
ID : 1
Format : AVC
Codec ID : avc1
Duration : 3 h 32 min
Bit rate : 5 908 kb/s
Width : 1 920 pixels
Height : 1 080 pixels
Display aspect ratio : 16:9
Frame rate mode : Constant
Frame rate : 50.000 FPS
Color space : YUV
Chroma subsampling : 4:2:0
Bit depth : 8 bits
Scan type : Progressive
Bits/(Pixel*Frame) : 0.057
Stream size : 8.76 GiB (88%)

Audio #1
Format : AC-3
Format/Info : Audio Coding 3
Commercial name : Dolby Digital
Codec ID : ac-3
Duration : 3 h 32 min
Bit rate mode : Constant
Bit rate : 384 kb/s
Channel(s) : 6 channels
Channel layout : L R C LFE Ls Rs
Sampling rate : 48.0 kHz
Frame rate : 31.250 FPS (1536 SPF)
Compression mode : Lossy
Stream size : 583 MiB (6%)
Language : German

Audio #2
Format : AC-3
Format/Info : Audio Coding 3
Commercial name : Dolby Digital
Codec ID : ac-3
Duration : 3 h 32 min
Bit rate mode : Constant
Bit rate : 384 kb/s
Channel(s) : 2 channels
Channel layout : L R
Sampling rate : 48.0 kHz
Frame rate : 31.250 FPS (1536 SPF)
Compression mode : Lossy
Stream size : 583 MiB (6%)
Language : English

AEW Revolution 2020 1080p HDTV
AEW Revolution 2020 1080p HDTV
AEW Revolution 2020 1080p HDTV
AEW Revolution 2020 1080p HDTV
AEW Revolution 2020 1080p HDTV
AEW Revolution 2020 1080p HDTV
AEW Revolution 2020 1080p HDTV
AEW Revolution 2020 1080p HDTV

 189 total views,  3 views today

About PH.M.H

[Wrestling Best Uploader]

View all posts by PH.M.H

One Comment on “AEW Revolution 2020 1080p HDTV”

Leave a Reply

Your email address will not be published. Required fields are marked *