AEW Fyter Fest 2019 PPV 1080p

AEW Fyter Fest 2019 PPV 1080p WEB h264-HEEL

Download AEW Fyter Fest 2019 PPV 1080p full event free links / hosts

AEW Fyter Fest 2019 PPV 1080p

AEW Fyter Fest 2019 PPV 1080p WEB h264-HEEL

Title: AEW.Fyter.Fest.2019.PPV.1080p.WEB.h264-HEEL 
Released: 2019.06.29 
Source: WEB 
Resolution: 1920 x 1080 @ 29.970 FPS 
Video: H.264 @ 3828 kbps 
Audio: AAC @ 132 kbps 
Size: 4.35 GB 
Runtime: 2h 37mn 

General
Complete name : AEW.Fyter.Fest.2019.PPV.1080p.WEB.h264-HEEL.mp4
Format : MPEG-4
Format profile : Base Media
Codec ID : isom (isom/iso2/avc1/mp41)
File size : 4.35 GiB
Duration : 2 h 36 min
Overall bit rate : 3 969 kb/s
Writing application : Lavf58.27.103

Video
ID : 1
Format : AVC
Format/Info : Advanced Video Codec
Format profile : [email protected]
Format settings : CABAC / 4 Ref Frames
Format settings, CABAC : Yes
Format settings, Reference : 4 frames
Codec ID : avc1
Codec ID/Info : Advanced Video Coding
Duration : 2 h 36 min
Bit rate : 3 828 kb/s
Width : 1 920 pixels
Height : 1 080 pixels
Display aspect ratio : 16:9
Frame rate mode : Variable
Frame rate : 29.970 (29970/1000) FPS
Minimum frame rate : 0.248 FPS
Maximum frame rate : 30.303 FPS
Color space : YUV
Chroma subsampling : 4:2:0
Bit depth : 8 bits
Scan type : Progressive
Bits/(Pixel*Frame) : 0.062
Stream size : 4.19 GiB (96%)
Codec configuration box : avcC

Audio
ID : 2
Format : AAC LC
Format/Info : Advanced Audio Codec Low Complexity
Codec ID : mp4a-40-2
Duration : 2 h 36 min
Bit rate mode : Constant
Bit rate : 132 kb/s
Channel(s) : 2 channels
Channel layout : L R
Sampling rate : 44.1 kHz
Frame rate : 43.066 FPS (1024 SPF)
Compression mode : Lossy
Stream size : 147 MiB (3%)
Default : Yes
Alternate group : 1

AEW Fyter Fest 2019 PPV 1080p

1fichier

1fichier.com/?ed6shumk45ap5344iuut
file.bz

file.bz/O7ialdx5n7

uptobox

uptobox.com/7e68yr1vtaia

anonfile

anonfile.com/F8ieldxcn1

bayfiles
bayfiles.com/07iblbxdn5

megaupload

megaupload.nz/Cej2lax5n2

turbobit
turbobit.net/96e4dv5wt29a.html

multiup multiup.org/download/79286dc58143de1a3b121823a47810c8

verystream

verystream.com/stream/MpQwuq9Ga1P

1fichier

1fichier.com/?new5mpcr465urz63kx89
1fichier.com/?u588tc01310pkxnzw4pk
1fichier.com/?nvlzij7u2l7yan2f16wp

anonfile
anonfile.com/Sbe1l9x2n4
anonfile.com/S4gbldx4n3
anonfile.com/Tagelfx9nb

bayfiles
bayfiles.com/Y7e9l7x4n4
bayfiles.com/Lcg8l3x9nc
bayfiles.com/Abg3lax5n7

dl.free.fr
dl.free.fr/qN64Dw1qx
dl.free.fr/oANlhwbfz
dl.free.fr/f0d6Ek1n2

file.bz
file.bz/v1g8l6x4n9
file.bz/K2g7l6x6n4
file.bz/Dbgcl9x3n2

filefactory

www.filefactory.com/file/56096frummdb
www.filefactory.com/file/34n90l6m3fob
www.filefactory.com/file/15jz4z9y35qz

megaupload
megaupload.nz/fag7l2x5n5
megaupload.nz/Sbh9lcxdn6
megaupload.nz/V9g3l0x6nf

multiup

multiup.org/download/050e4e7cc4a19c60e74902defcd3a3c9
multiup.org/download/e94ee668a48158cbe0eb2ecf804d7912
multiup.org/download/2bf23fd68c3438a364dd549aed91038f

turbobit
turbobit.net/04r0mav4wwe9.html
turbobit.net/n4hz6hh55ptd.html
turbobit.net/3tulxuj7zoev.html

uptobox
uptobox.com/2280chilmr5x
uptobox.com/5jfzcl8p2cdm
uptobox.com/c7v7ug3mvvq0

 256 total views,  1 views today

AEW Fyter Fest 2019 PPV 1080p

WH : Source OF Wrestling Releases / Home OF WH Releases

Buy Premium or Renew From WH Links to Keep it Alive

About PH.M.H

[Wrestling Best Uploader]

View all posts by PH.M.H →

Leave a Reply

Your email address will not be published. Required fields are marked *