AEW Fyter Fest 2019 HDTV H264-WH

AEW Fyter Fest 2019 HDTV H264-WH

Download AEW Fyter Fest 2019 HDTV free links

AEW Fyter Fest 2019 HDTV H264-WH

AEW Fyter Fest 2019 HDTV H264-WH

Name – AEW.Fyter.Fest.2019.HDTV.H264-WH
Aired – 06.29.2019
Released – 06.29.2019
SOURCE – 720p.X
Size – 1.78 GB
Container – MP4
Resolution – 712 x 400 (16:9)
Video – x264 @ 1500 kBPS
Audio – AAC 128 KBPS
Length – 02:36:00
Encoder – WH Crew

General
Complete name : AEW.Fyter Fest.2019.HDTV.H264-WH.mp4
Format : MPEG-4
Format profile : Base Media
Codec ID : isom (isom/iso2/avc1/mp41)
File size : 1.79 GiB
Duration : 2 h 36 min
Overall bit rate : 1 634 kb/s
Writing application : Lavf56.15.102

Video
ID : 1
Format : AVC
Format/Info : Advanced Video Codec
Format profile : [email protected]
Format settings : 2 Ref Frames
Format settings, CABAC : No
Format settings, Reference : 2 frames
Codec ID : avc1
Codec ID/Info : Advanced Video Coding
Duration : 2 h 36 min
Bit rate : 1 500 kb/s
Width : 712 pixels
Height : 400 pixels
Display aspect ratio : 16:9
Frame rate mode : Constant
Frame rate : 29.970 (29970/1000) FPS
Color space : YUV
Chroma subsampling : 4:2:0
Bit depth : 8 bits
Scan type : Progressive
Bits/(Pixel*Frame) : 0.176
Stream size : 1.64 GiB (92%)
Writing library : x264 core 142 Codec configuration box : avcC

Audio
ID : 2
Format : AAC LC
Format/Info : Advanced Audio Codec Low Complexity
Codec ID : mp4a-40-2
Duration : 2 h 36 min
Duration_LastFrame : -23 ms
Bit rate mode : Constant
Bit rate : 128 kb/s
Channel(s) : 2 channels
Channel layout : L R
Sampling rate : 44.1 kHz
Frame rate : 43.066 FPS (1024 SPF)
Compression mode : Lossy
Stream size : 143 MiB (8%)
Default : Yes
Alternate group : 1

AEW Fyter Fest 2019 HDTV H264-WH

1fichier.com/?7wnek8my7av8yqeaap13
anonfile.com/xducl3xfn5
bayfiles.com/L7tcl2xfn7
datoid.cz/RoIi4n
dl.free.fr/qOP3K2bLr
file.bz/Odt8l8x0n0
www.filefactory.com/file/4yq74ic223zj
megaupload.nz/ibu3l8x9nd
multiup.org/download/9cefd5685bd7de2aa5a0dac5c1b43df6
turbobit.net/shsy00lsf16z.html
uptobox.com/bgc1c1wkw2eg

 174 total views,  1 views today

AEW Fyter Fest 2019 HDTV H264-WH

WH : Source OF Wrestling Releases / Home OF WH Releases

Buy Premium or Renew From WH Links to Keep it Alive

About PH.M.H

[Wrestling Best Uploader]

View all posts by PH.M.H →

Leave a Reply

Your email address will not be published. Required fields are marked *