AEW DARK 12th May 2020 720p / 1080p -TJ

AEW DARK 12th May 2020 720p / 1080p -TJ

AEW DARK 12th May 2020 720p / 1080p -TJ

Download AEW DARK 12th May 2020 720p / 1080p TJ

Info: HOMEPAGETVDBIMDB

* * * * * * * * *

AEW DARK 12th May 2020 720p WEBRip h264-TJ
1.17 GB

* * * * * * * * *

General
Complete name : AEW.DARK.12th.May.2020.720p.WEBRip.h264-TJ.mp4
Format : MPEG-4
Format profile : Base Media
File size : 1.18 GiB
Duration : 1 h 13 min
Overall bit rate : 2 310 kb/s

Video
ID : 1
Format : AVC
Codec ID : avc1
Duration : 1 h 13 min
Duration_FirstFrame : -33 ms
Bit rate : 2 174 kb/s
Width : 1 280 pixels
Height : 720 pixels
Display aspect ratio : 16:9
Frame rate mode : Variable
Frame rate : 29.970 FPS
Minimum frame rate : 29.970 FPS
Maximum frame rate : 29.990 FPS
Color space : YUV
Chroma subsampling : 4:2:0
Bit depth : 8 bits
Scan type : Progressive
Bits/(Pixel*Frame) : 0.079
Stream size : 1.11 GiB (94%)

Audio
Format : AAC LC
Codec ID : mp4a-40-2
Duration : 1 h 13 min
Bit rate mode : Constant
Bit rate : 128 kb/s
Channel(s) : 2 channels
Channel layout : L R
Sampling rate : 44.1 kHz
Frame rate : 43.066 FPS (1024 SPF)
Compression mode : Lossy
Stream size : 66.9 MiB (6%)
Default : Yes
Alternate group : 1

AEW DARK 12th May 2020 1080p WEBRip h264-TJ
2.37 GB

* * * * * * * * *

General
Complete name : AEW.DARK.12th.May.2020.1080p.WEBRip.h264-TJ.mp4
Format : MPEG-4
Format profile : Base Media
Codec ID : isom (isom/iso2/avc1/mp41)
File size : 2.37 GiB
Duration : 1 h 13 min
Overall bit rate : 4 651 kb/s

Video
ID : 1
Format : AVC
Codec ID : avc1
Duration : 1 h 13 min
Duration_FirstFrame : -33 ms
Bit rate : 4 516 kb/s
Width : 1 920 pixels
Height : 1 080 pixels
Display aspect ratio : 16:9
Frame rate mode : Variable
Frame rate : 29.970 FPS
Minimum frame rate : 29.970 FPS
Maximum frame rate : 29.990 FPS
Color space : YUV
Chroma subsampling : 4:2:0
Bit depth : 8 bits
Scan type : Progressive
Bits/(Pixel*Frame) : 0.073
Stream size : 2.30 GiB (97%)

Audio
ID : 2
Format : AAC LC
Codec ID : mp4a-40-2
Duration : 1 h 13 min
Bit rate mode : Constant
Bit rate : 128 kb/s
Channel(s) : 2 channels
Channel layout : L R
Sampling rate : 44.1 kHz
Frame rate : 43.066 FPS (1024 SPF)
Compression mode : Lossy
Stream size : 66.9 MiB (3%)
Default : Yes
Alternate group : 1

v

 112 total views,  3 views today

About PH.M.H

[Wrestling Best Uploader]

View all posts by PH.M.H

2 Comments on “AEW DARK 12th May 2020 720p / 1080p -TJ”

Leave a Reply

Your email address will not be published. Required fields are marked *