AEW PPV 2019 05 25 Double or Nothing 720p BRLive WEB-DL

AEW PPV 2019 05 25 Double or Nothing 720p BRLive WEB-DL AAC2 0 H 264 mkv
AEW PPV 2019 05 25 Double or Nothing 720p BRLive WEB-DL AAC2 0 H 264 mkv
General
Complete name                            : AEW.PPV.2019.05.25.Double.or.Nothing.720p.BRLive.WEB-DL.AAC2.0.H.264.mkv
Format                                  : Matroska
Format version                          : Version 4
File size                                : 5.75 GiB
Duration                                : 3 h 47 min
Overall bit rate                        : 3 622 kb/s
Encoded date                            : UTC 2019-05-26 15:04:25
Writing application                      : mkvmerge v33.1.0 (‘Primrose’) 64-bit
Writing library                          : libebml v1.3.7 + libmatroska v1.5.0

Video
ID                                      : 1
Format                                  : AVC
Format/Info                              : Advanced Video Codec
Format profile                          : [email protected]
Format settings                          : CABAC / 4 Ref Frames
Format settings, CABAC                  : Yes
Format settings, ReFrames                : 4 frames
Codec ID                                : V_MPEG4/ISO/AVC
Duration                                : 3 h 47 min
Bit rate mode                            : Constant
Bit rate                                : 3 500 kb/s
Width                                    : 1 280 pixels
Height                                  : 720 pixels
Display aspect ratio                    : 16:9
Frame rate mode                          : Constant
Frame rate                              : 29.970 (30000/1001) FPS
Color space                              : YUV
Chroma subsampling                      : 4:2:0
Bit depth                                : 8 bits
Scan type                                : Progressive
Bits/(Pixel*Frame)                      : 0.127
Stream size                              : 5.55 GiB (96%)
Default                                  : Yes
Forced                                  : No

Audio
ID                                      : 2
Format                                  : AAC LC
Format/Info                              : Advanced Audio Codec Low Complexity
Codec ID                                : A_AAC-2
Duration                                : 3 h 47 min
Bit rate                                : 126 kb/s
Channel(s)                              : 2 channels
Channel layout                          : L R
Sampling rate                            : 44.1 kHz
Frame rate                              : 43.066 FPS (1024 SPF)
Compression mode                        : Lossy
Delay relative to video                  : 7 ms
Stream size                              : 204 MiB (3%)
Language                                : English
Default                                  : Yes
Forced                                  : No

NitroFlare // Uploadgig

Leave a Reply

Your email address will not be published. Required fields are marked *