AEW Dynamite 2020 05 27 HDTV x264-NWCHD / 720p

AEW Dynamite 2020 05 27 HDTV x264-NWCHD / 720p

AEW Dynamite 2020 05 27 HDTV

General
Complete name : AEW.Dynamite.2020.05.27.HDTV.x264-NWCHD.mp4
Format : MPEG-4
Format profile : Base Media / Version 2
Codec ID : mp42 (isom/iso2/avc1/mp41)
File size : 1.14 GiB
Duration : 1 h 41 min
Overall bit rate mode : Variable
Overall bit rate : 1 612 kb/s

Video
Format : AVC
Duration : 1 h 41 min
Bit rate : 1 400 kb/s
Width : 704 pixels
Height : 400 pixels
Display aspect ratio : 16:9
Frame rate mode : Constant
Frame rate : 29.970 (30000/1001) FPS
Color space : YUV
Chroma subsampling : 4:2:0
Bit depth : 8 bits
Scan type : Progressive
Bits/(Pixel*Frame) : 0.166
Stream size : 1.00 GiB (88%)

Audio
Codec ID : mp4a-40-2
Duration : 1 h 41 min
Bit rate mode : Variable
Bit rate : 192 kb/s
Channel(s) : 2 channels
Channel layout : L R
Sampling rate : 48.0 kHz
Frame rate : 46.875 FPS (1024 SPF)
Compression mode : Lossy
Stream size : 139 MiB (12%)