AEW Dynamite 2019 11 27 720p HDTV x264-WH [5.3 GB]

AEW Dynamite 2019 11 27 720p HDTV x264-WH

General
Complete name : AEW.Dynamite.2019.11.27.720p.HDTV.x264-WH.mp4
Format : MPEG-4
Format profile : Base Media
Codec ID : isom
File size : 5.39 GiB
Duration : 1h 47mn
Overall bit rate : 7 162 Kbps
Writing application : Lavf56.15.102

Video
ID : 1
Format : AVC
Format/Info : Advanced Video Codec
Format profile : [email protected]
Format settings, CABAC : No
Format settings, ReFrames : 2 frames
Codec ID : avc1
Codec ID/Info : Advanced Video Coding
Duration : 1h 47mn
Bit rate mode : Variable
Bit rate : 7 000 Kbps
Width : 1 280 pixels
Height : 720 pixels
Display aspect ratio : 16:9
Frame rate mode : Constant
Frame rate : 29.970 fps
Color space : YUV
Chroma subsampling : 4:2:0
Bit depth : 8 bits
Scan type : Progressive
Bits/(Pixel*Frame) : 0.253
Stream size : 5.27 GiB (98%)
Writing library : x264 core 142

Audio
ID : 2
Format : AAC
Format/Info : Advanced Audio Codec
Format profile : LC
Codec ID : 40
Duration : 1h 47mn
Bit rate mode : Variable
Bit rate : 152 Kbps
Maximum bit rate : 224 Kbps
Channel(s) : 2 channels
Channel positions : Front: L R
Sampling rate : 44.1 KHz
Compression mode : Lossy
Stream size : 117 MiB (2%)
Language : English


nitroflare
https://nitroflare.com/view/09EBF495A5CEA7D

fileup
https://fileup.cc/8mzpmov5t1a2

rapidgator
https://rapidgator.net/file/402d982a62663bc96b3ed4934ea5040c

uploadgig
https://uploadgig.com/file/download/bdd6B4e698a5fc3c



dropapk
https://dropapk.to/9y2ia6ud0eoz
https://dropapk.to/apcjfl7nuu2f
https://dropapk.to/vk2dlriracmm
https://dropapk.to/n56ve56llhz7
https://dropapk.to/19bpqy8mqiri
https://dropapk.to/y9qekkfre6qk

earn4files
https://earn4files.com/g2151iqnllxf
https://earn4files.com/8loo80j6paxv
https://earn4files.com/ktg9q972q2ey
https://earn4files.com/k26ofj1kixm9
https://earn4files.com/gfrkmyt61lce
https://earn4files.com/nhkxg3podc5i

katfile
http://katfile.com/46uoiccavmj4
http://katfile.com/d4btry2fn7md
http://katfile.com/n46h0uxxizky
http://katfile.com/uzg3cew3cszy
http://katfile.com/chgi63lz80wm
http://katfile.com/ls4cd7jg08jv

nitroflare
http://nitroflare.com/view/581176FDA03411B
http://nitroflare.com/view/5B456378E00905A
http://nitroflare.com/view/8A0BB5642C7C99F
http://nitroflare.com/view/504456398CF0E07
http://nitroflare.com/view/B104407B5669E37
http://nitroflare.com/view/DF0697E155611E3

Leave a Reply

Your email address will not be published. Required fields are marked *