AEW Double or Nothing The Buy In WEB-DL

AEW Double or Nothing The Buy In WEB-DL

AEW Double or Nothing The Buy In WEB-DL

NOTE : THIS IS NOT THE PPV OK IT IS LIKE PRE SHOW

Complete name                            : AEW.2019.05.25.Double.or.Nothing.The.Buy.In.WEB-DL.AAC2.0.H.264.mkv
Format                                  : Matroska
Format version                          : Version 4
File size                                : 771 MiB
Duration                                : 1 h 0 min
Overall bit rate                        : 1 796 kb/s
Encoded date                            : UTC 2019-05-26 00:01:27
Writing application                      : mkvmerge v33.1.0 (‘Primrose’) 64-bit
Writing library                          : libebml v1.3.7 + libmatroska v1.5.0

Video
ID                                      : 1
Format                                  : AVC
Format/Info                              : Advanced Video Codec
Format profile                          : [email protected]
Format settings                          : CABAC / 2 Ref Frames
Format settings, CABAC                  : Yes
Format settings, ReFrames                : 2 frames
Codec ID                                : V_MPEG4/ISO/AVC
Duration                                : 59 min 58 s
Bit rate mode                            : Constant
Bit rate                                : 1 704 kb/s
Width                                    : 896 pixels
Height                                  : 504 pixels
Display aspect ratio                    : 16:9
Frame rate mode                          : Constant
Frame rate                              : 25.000 FPS
Color space                              : YUV
Chroma subsampling                      : 4:2:0
Bit depth                                : 8 bits
Scan type                                : Progressive
Bits/(Pixel*Frame)                      : 0.151
Stream size                              : 730 MiB (95%)
Default                                  : Yes
Forced                                  : No

Audio
ID                                      : 2
Format                                  : AAC LC
Format/Info                              : Advanced Audio Codec Low Complexity
Codec ID                                : A_AAC-2
Duration                                : 59 min 59 s
Bit rate                                : 93.4 kb/s
Channel(s)                              : 2 channels
Channel layout                          : L R
Sampling rate                            : 48.0 kHz
Frame rate                              : 46.875 FPS (1024 SPF)
Compression mode                        : Lossy
Delay relative to video                  : -1 s 543 ms
Stream size                              : 40.1 MiB (5%)
Language                                : English
Default                                  : Yes
Forced                                  : No

https://1fichier.com/?rjtjtg6k2aoj36246p3j
https://anonfile.com/H2Z1Q0s8nf
https://bayfiles.com/71afR8sbn3
https://bitster.cz/file/f84f61
https://ddl.to/ih0n8com5iy1
http://dl.free.fr/g7kHtTrCX
https://file.bz/17a6R3sfn4
http://www.filefactory.com/file/342r7jzqocqv
https://filerio.in/c1i81s93vpmd
https://filescdn.net/g30kiu5xikep
https://multiup.org/download/de6e4cdee0f8341d5685b68789a58d27
http://www.netshare.cz/e6c39ea3e02f2913
http://nitroflare.com/view/3DD71848F877525
https://openload.co/f/QTqt7nLrF14/
https://turbobit.net/11gfnpfxbfxj.html
https://uploadgig.com/file/download/4e8E75a810fa0336

2 Comments on “AEW Double or Nothing The Buy In WEB-DL”

  1. Thanks for having the decency to at least take the time and give us a heads up that this was the pre-show.. Appreciate it

Leave a Reply

Your email address will not be published.