AEW DARK 16th June 2020 720p -TJ

AEW DARK 16th June 2020 720p WEBRip h264-TJ

download AEW Dark 6/16/20
AEW DARK 16th June 2020
File inFormation OF AEW DARK 16th June 2020
DescriptionTitle: AEW.DARK.16th.June.2020.720p.WEBRip.h264-TJ

Video:
Duration: 01:36:03
Container: MP4
Format: AVC
Format Profile: [email protected]
Resolution: 1280×720 (16:9)
Frame Rate: 29.97
Bit Rate: 2169 Kbps

Audio:
Format: AAC
Sample Rate: 44.1 kHz
Bit Rate: 128 Kbps
Channels: 2 (Front: L R)
Single download links

Rapidgator // Nitroflare // Uploadgig // RockFile // ddl

references

Home PagePremium Site


detailed file information

General
Complete name : AEW.DARK.16th.June.2020.720p.WEBRip.h264-TJ.mp4
Format : MPEG-4
Format profile : Base Media
Codec ID : isom (isom/iso2/avc1/mp41)
File size : 1.55 GiB
Duration : 1 h 36 min
Overall bit rate : 2 305 kb/s
Writing application : Lavf58.20.100

Video
ID : AEW DARK
Format : AVC
Duration : 1 h 36 min
Duration_FirstFrame : -33 ms
Bit rate : 2 169 kb/s
Width : 1 280 pixels
Height : 720 pixels
Display aspect ratio : 16:9
Frame rate mode : Variable
Frame rate : 29.970 FPS
Minimum frame rate : 29.970 FPS
Maximum frame rate : 29.990 FPS
Color space : YUV
Chroma subsampling : 4:2:0
Bit depth : 8 bits
Scan type : Progressive
Bits/(Pixel*Frame) : 0.079
Stream size : 1.46 GiB (94%)
Color range : Limited
Color primaries : BT.709
Transfer characteristics : BT.709
Matrix coefficients : BT.709
Codec configuration box : avcC

Audio
ID : DARK
Format : AAC LC
Codec ID : mp4a-40-2
Duration : 1 h 36 min
Bit rate mode : Constant
Bit rate : 128 kb/s
Channel(s) : 2 channels
Channel layout : L R
Sampling rate : 44.1 kHz
Frame rate : 43.066 FPS (1024 SPF)
Compression mode : Lossy
Stream size : 87.9 MiB (6%)
Default : Yes
Alternate group : 1

Leave a Reply

Your email address will not be published. Required fields are marked *