AEW All Out 2019 PPV 1080p WEB h264-HEEL

AEW All Out 2019 PPV 1080p WEB h264-HEEL

dOWNLOAD AEW All Out 2019 PPV 1080p

dOWNLOAD AEW All Out 2019 PPV 1080p
DescriptionTitle: AEW.All.Out.2019.PPV.1080p.WEB.h264-HEEL 
Released: 2019.09.01 
Source: FITE 
Resolution: 1920 x 1080 @ 30 FPS 
Video: H.264 @ 3885 kbps 
Size: 6.78 GB 
Runtime: 3h 53mn 

English: AAC @ 132 kbps 
Spanish: AAC @ 132 kbps 

General
Complete name : AEW.All.Out.2019.PPV.1080p.WEB.h264-HEEL.mp4
Format : MPEG-4
Format profile : Base Media
Codec ID : isom
File size : 6.78 GiB
Duration : 3h 53mn
Overall bit rate : 4 161 Kbps
Writing application : Lavf58.30.100

Video
ID : 1
Format : AVC
Format/Info : Advanced Video Codec
Format profile : [email protected]
Format settings, CABAC : Yes
Format settings, ReFrames : 4 frames
Format settings, GOP : M=3, N=32
Codec ID : avc1
Codec ID/Info : Advanced Video Coding
Duration : 3h 53mn
Bit rate mode : Variable
Bit rate : 3 885 Kbps
Width : 1 920 pixels
Height : 1 080 pixels
Display aspect ratio : 16:9
Frame rate mode : Variable
Frame rate : 30.000 fps
Minimum frame rate : 29.412 fps
Maximum frame rate : 30.303 fps
Color space : YUV
Chroma subsampling : 4:2:0
Bit depth : 8 bits
Scan type : Progressive
Bits/(Pixel*Frame) : 0.062
Stream size : 6.33 GiB (93%)

Audio #1
ID : 2
Format : AAC
Format/Info : Advanced Audio Codec
Format profile : LC
Codec ID : 40
Duration : 3h 53mn
Bit rate mode : Constant
Bit rate : 132.3 Kbps
Channel(s) : 2 channels
Channel positions : Front: L R
Sampling rate : 44.1 KHz
Compression mode : Lossy
Stream size : 218 MiB (3%)
Language : English

Audio #2
ID : 3
Format : AAC
Format/Info : Advanced Audio Codec
Format profile : LC
Codec ID : 40
Duration : 3h 53mn
Bit rate mode : Variable
Bit rate : 132.3 Kbps
Maximum bit rate : 137 Kbps
Channel(s) : 2 channels
Channel positions : Front: L R
Sampling rate : 44.1 KHz
Compression mode : Lossy
Stream size : 217 MiB (3%)
Language : Spanish

Text
ID : 1-608-1
Format : EIA-608
Muxing mode : AVC / SCTE 128 / DTVCC Transport
Muxing mode, more info : Muxed in Video #1
Duration : 3h 53mn
Stream size : 0.00 Byte (0%)
ContentInfo : No content

download

ONE LINK DOWNLOAD

rapidgator

https://rapidgator.net/file/ac1577d86d0294d3a70352b16579e5dc

4downfiles

https://4downfiles.org/m9mkj4zyva2r

userscloud
https://userscloud.com/9zs50se7rl23

1fichier

https://1fichier.com/?azxhwsrog56hgfi1lj3p

dl.free.fr

http://dl.free.fr/onIgExTE9

fileup
https://fileup.cc/ns059f47tw0q

multiup
https://multiup.org/download/240ddc33ea75d9ebbdb8f3484ead440d

1 GB [7 PARTS] // INTERCHANGEABLE LINKS

4downfiles

https://4downfiles.org/lea6brio5g8v
https://4downfiles.org/ykxl7ycy2el3
https://4downfiles.org/tfgv7d080le9
https://4downfiles.org/2msj91fkthbg
https://4downfiles.org/9adbdfwql0wt
https://4downfiles.org/87b1hmga9p3t
https://4downfiles.org/iqldzzpq0q2i

earn4files

https://earn4files.com/aumhf609xt1b
https://earn4files.com/u0dxz8j8nnvk
https://earn4files.com/rkfgiedtceui
https://earn4files.com/nb4q6o8kc57e
https://earn4files.com/i7oc30r3bajq
https://earn4files.com/trstme90s31f
https://earn4files.com/ni1fs6wjixo7

filespace

http://filespace.com/yt702811h7ju
http://filespace.com/r2vib83dcp5w
http://filespace.com/tnmp24mrby5u
http://filespace.com/b6xpllmn60eu
http://filespace.com/q9dyck7y4ji4
http://filespace.com/edj6ozox26jb
http://filespace.com/qy8odbqhd15j

nitroflare
http://nitroflare.com/view/45948553C506788
http://nitroflare.com/view/DE322F6395D8228
http://nitroflare.com/view/28373B065A44C7E
http://nitroflare.com/view/DF78C20582F6E47
http://nitroflare.com/view/16CC51EC0EDD6E5
http://nitroflare.com/view/B7AA88C35435124
http://nitroflare.com/view/FC024F5584C91BE

rapidgator
https://rapidgator.net/file/a850c2659a380e727704694367aa1018
https://rapidgator.net/file/5fddf61ba0d503974bb428adbad4ca27
https://rapidgator.net/file/82965f550fdb370185bbd353457d9835
https://rapidgator.net/file/8b9d953bf483850d89737802388ffafd
https://rapidgator.net/file/5d17df5f1f182aeaf813672a9145d43f
https://rapidgator.net/file/6e3ad330fd998b284aa922e560360c06
https://rapidgator.net/file/5c05c115905cbefd7a98bdc1c5fa5ef2

rockfile
http://rockfile.co/ls15vrd7gfug.html
http://rockfile.co/wv455cmmk77t.html
http://rockfile.co/dz7eyrmws3gl.html
http://rockfile.co/yrz8jz682b91.html
http://rockfile.co/judusc3sybpd.html
http://rockfile.co/xnx56ohbhpln.html
http://rockfile.co/mv3ikz5r63yz.html

uptomega
https://uptomega.com/w0pjjvpteca9
https://uptomega.com/ft6whbyqdtd1
https://uptomega.com/f15j8x69pq9f
https://uptomega.com/c5umueppi5ap
https://uptomega.com/7hpjlbagzjcf
https://uptomega.com/nblf89eygqr5
https://uptomega.com/fihm2istsoyw

2 Comments on “AEW All Out 2019 PPV 1080p WEB h264-HEEL”

Leave a Reply

Your email address will not be published. Required fields are marked *