ACW 2019 06 01 Retribution 720p

ACW 2019 06 01 Retribution 720p WEB h264-iNDYHEEL

ACW 2019 06 01 Retribution 720p WEB h264-iNDYHEEL

ACW.2019.06.01.Retribution.720p.WEB.h264-iNDYHEEL 

– 

ACW Heavyweight Championship Match 
Damien Angel defends vs. Troy Hollywood 

ACW Cruiserweight Championship 
Bobby Flaco defends vs. Hunter Law 

ACW Women’s Championship Match 
Avery Taylor defends vs. Janai Kai 

Grudge Match 
Steven Frick vs. Joseph Schwartz 

Tag Team Showcase 
Task Force of DMC & Mikey Spandex vs. The Metro Brothers of Chris Metro & JC Metro 

Special Challenge Match #1 
CJ O’Doyle vs. Sage Scott w/ The Midnight Tribe Member Jackson Duvalier 

Special Challenge Match #2 
Francisco Ciatso vs. The Storm 

Special Challenge Match #3 
Faboo André vs. The Debuting Wes Warren 

The Danny Vincent Show featuring The Writer, Producer, & Director of “The Danny Vincent Show” Danny Vincent w/ Lil Jay with special guest Rey Fury

General
Complete name : ACW.2019.06.01.Retribution.720p.WEB.h264-iNDYHEEL.mp4
Format : MPEG-4
Format profile : Base Media
Codec ID : isom (isom/iso2/avc1/mp41)
File size : 2.74 GiB
Duration : 3 h 3 min
Overall bit rate mode : Variable
Overall bit rate : 2 143 kb/s
Writing application : Lavf58.27.103

Video
ID : 1
Format : AVC
Format/Info : Advanced Video Codec
Format profile : [email protected]
Format settings : CABAC / 4 Ref Frames
Format settings, CABAC : Yes
Format settings, Reference : 4 frames
Codec ID : avc1
Codec ID/Info : Advanced Video Coding
Duration : 3 h 3 min
Bit rate : 2 006 kb/s
Width : 1 280 pixels
Height : 720 pixels
Display aspect ratio : 16:9
Frame rate mode : Variable
Frame rate : 30.082 FPS
Minimum frame rate : 0.434 FPS
Maximum frame rate : 90 000.000 FPS
Color space : YUV
Chroma subsampling : 4:2:0
Bit depth : 8 bits
Scan type : Progressive
Bits/(Pixel*Frame) : 0.072
Stream size : 2.57 GiB (94%)
Codec configuration box : avcC

Audio
ID : 2
Format : AAC LC
Format/Info : Advanced Audio Codec Low Complexity
Codec ID : mp4a-40-2
Duration : 3 h 3 min
Bit rate mode : Variable
Bit rate : 127 kb/s
Maximum bit rate : 134 kb/s
Channel(s) : 2 channels
Channel layout : L R
Sampling rate : 48.0 kHz
Frame rate : 46.875 FPS (1024 SPF)
Compression mode : Lossy
Stream size : 166 MiB (6%)
Default : Yes
Alternate group : 1

https://1fichier.com/?s6m27cow7azqmts1o4do
https://anonfile.com/b2Ec62u6n7
https://bayfiles.com/r5F161u2na
https://bitster.cz/file/c6cc58
http://dl.free.fr/kAXRb7qcp
https://file.bz/QfEb6eubn0
http://www.filefactory.com/file/4srcao3dcyo5
https://filerio.in/lu2rrdxojhqr
https://filescdn.net/287tmrg9mxjt
https://multiup.org/download/28c049b856f42a9acba0c7410a314886
http://nitroflare.com/view/8C3552998F320BF
https://openload.co/f/7zbnnb43wM8
https://rg.to/file/649d60e994deecc54f3e4d2fa0d64e7e
https://turbobit.net/uljzqsj9994n.html

Leave a Reply

Your email address will not be published. Required fields are marked *