AAA 2019 10 23 Lucha Capital 1080p [VIP USERs]

AAA 2019 10 23 Lucha Capital 1080p WEB x264-0M1077

dOWNLOAD AAA 2019 10 23 Lucha Capital 1080p

AAA 2019 10 23 Lucha Capital 1080p
Description[EVENT]: AAA.2019.10.23.Lucha.Capital.1080p.WEB.x264-0M1077
[SIZE]: 2.63 GB
[SOURCE]: Facebook
[CONTAINER]: mp4
[RESOLUTION]: 1920 x 1080 (16:9) @ 30.000 FPS
[VIDEO]: x264 @ 4317 kbps
[AUDIO]: AAC @ 128 kbps
[LENGTH]: 1 h 24 min

General
Complete name : AAA.2019.10.23.Lucha.Capital.1080p.WEB.x264-0M1077.mp4
Format : MPEG-4
Format profile : Base Media
Codec ID : isom (isom/iso2/avc1/mp41)
File size : 2.63 GiB
Duration : 1 h 24 min
Overall bit rate : 4 455 kb/s
Writing application : Lavf58.33.100

Video
ID : 1
Format : AVC
Format/Info : Advanced Video Codec
Format profile : [email protected]
Format settings : CABAC / 4 Ref Frames
Format settings, CABAC : Yes
Format settings, Reference : 4 frames
Format settings, GOP : M=4, N=60
Codec ID : avc1
Codec ID/Info : Advanced Video Coding
Duration : 1 h 24 min
Bit rate : 4 317 kb/s
Width : 1 920 pixels
Height : 1 080 pixels
Display aspect ratio : 16:9
Frame rate mode : Variable
Frame rate : 30.000 FPS
Minimum frame rate : 28.571 FPS
Maximum frame rate : 31.250 FPS
Color space : YUV
Chroma subsampling : 4:2:0
Bit depth : 8 bits
Scan type : Progressive
Bits/(Pixel*Frame) : 0.069
Stream size : 2.55 GiB (97%)
Codec configuration box : avcC

Audio
ID : 2
Format : AAC LC
Format/Info : Advanced Audio Codec Low Complexity
Codec ID : mp4a-40-2
Duration : 1 h 24 min
Bit rate mode : Constant
Bit rate : 128 kb/s
Channel(s) : 2 channels
Channel layout : L R
Sampling rate : 48.0 kHz
Frame rate : 46.875 FPS (1024 SPF)
Compression mode : Lossy
Stream size : 77.3 MiB (3%)
Default : Yes
Alternate group : 1

https://4downfile.org/0jz1c0pt07u5
https://anonymousfiles.io/LeZgIOKh/
https://www.dropmega.com/86dc95b46927a601
https://earn4files.com/micb964pc6mh
https://file.bz/UdS1c79an7
https://filerio.in/d68m6wlh2dsk
https://fileup.cc/a6qkml7fxjjm
https://gofile.io/?c=De6fCE
https://rapidgator.net/file/56ec8ee1374e2b691c4f23a24f240bd8
https://upload.ac/ake8i7xs22i9
https://uptobox.com/heysp9v9gdbx

4downfile

https://4downfile.org/fyyid0n576vs
https://4downfile.org/ycc1tqlws9hi
https://4downfile.org/suq30ljskiyx

dropapk
https://dropapk.to/r0qnkwqgrzgk
https://dropapk.to/4uce1e0vs36i
https://dropapk.to/vb2gtcdyvt64

earn4files
https://earn4files.com/tqhysksd1io6
https://earn4files.com/4jx67mmr27va
https://earn4files.com/hkrtxvbu3nhd

https://anonymousfiles.io/wKozsj2J/
https://anonymousfiles.io/l8bjKrPl/
https://anonymousfiles.io/REruK48P/
https://www.dropmega.com/54b1dbccc1cdb6dd
https://www.dropmega.com/9b4f47e8c6a9e8c5
https://www.dropmega.com/e22819f3b04c9a9a
https://file.bz/7aTccf9bn8
https://file.bz/9aT0ca9cn2
https://file.bz/A4Tdc498nf
https://filerio.in/kzo4ekaimn4p
https://filerio.in/rf6e2u52ymvf
https://filerio.in/3g13qg50sv4h
https://gofile.io/?c=BBeNDk
https://gofile.io/?c=r0r07B
https://gofile.io/?c=vXf1ur
https://uptobox.com/3cn6ecxvkqwu
https://uptobox.com/37q7d57ovb5v
https://uptobox.com/9nbi1vwsqsfj
https://uptomega.com/9cuov1trxztg
https://uptomega.com/hlwocwd8xo28
https://uptomega.com/ndu3d4bnad6r

Leave a Reply

Your email address will not be published. Required fields are marked *