AAA 2019 10 19 Heroes Inmortales XIII 540p

AAA 2019 10 19 Heroes Inmortales XIII 540p WEBRIP x264-WH

dOWNLOAD AAA 2019 10 19 Heroes Inmortales XIII 540p

AAA 2019 10 19 Heroes Inmortales XIII 720p
General
Complete name                    : 
AAA.2019.10.19.Heroes.Inmortales.XIII.540p.WEBRIP.x264-WH.mp4
Format                           : MPEG-4
Format profile                   : Base Media
Codec ID                         : isom
File size                        : 2.12 GiB
Duration                         : 3h 47mn
Overall bit rate                 : 1 339 Kbps
Encoded date                     : UTC 2019-09-26 20:46:25
Tagged date                      : UTC 2019-09-26 20:46:25
Writing application              : Lavf56.15.102

Video
ID                               : 1
Format                           : AVC
Format/Info                      : Advanced Video Codec
Format profile                   : [email protected]
Format settings, CABAC           : No
Format settings, ReFrames        : 2 frames
Codec ID                         : avc1
Codec ID/Info                    : Advanced Video Coding
Duration                         : 3h 47mn
Bit rate mode                    : Variable
Bit rate                         : 1 200 Kbps
Width                            : 960 pixels
Height                           : 540 pixels
Display aspect ratio             : 16:9
Frame rate mode                  : Constant
Frame rate                       : 29.970 fps
Color space                      : YUV
Chroma subsampling               : 4:2:0
Bit depth                        : 8 bits
Scan type                        : Progressive
Bits/(Pixel*Frame)               : 0.077
Stream size                      : 1.91 GiB (90%)
Writing library                  : x264 core 142
Language                         : English
Encoded date                     : UTC 2019-09-26 20:46:25
Tagged date                      : UTC 2019-09-26 20:46:25

Audio
ID                               : 2
Format                           : AAC
Format/Info                      : Advanced Audio Codec
Format profile                   : LC
Codec ID                         : 40
Duration                         : 3h 47mn
Bit rate mode                    : Constant
Bit rate                         : 128 Kbps
Channel(s)                       : 2 channels
Channel positions                : Front: L R
Sampling rate                    : 44.1 KHz
Compression mode                 : Lossy
Stream size                      : 208 MiB (10%)
Language                         : English
Encoded date                     : UTC 2019-09-26 20:46:25
Tagged date                      : UTC 2019-09-26 20:46:25

earn4files

https://earn4files.com/gm131jnaplbt

fileup
https://fileup.cc/9f8wnlxcc0fc

rapidgator
https://rapidgator.net/file/6dacc15cf6e1b6941186f2e7d22b4979

upload
https://upload.ac/zlz7dy25rt1i

uploadgig
https://uploadgig.com/file/download/c95eEc3f918B1734

Leave a Reply

Your email address will not be published. Required fields are marked *