2019-03-24.MGM.National.Harbor.Sergey.Lipinets.vs.Lamont.Peterson.Undercard.HEVC.x265-WH

2019-03-24.MGM.National.Harbor.Sergey.Lipinets.vs.Lamont.Peterson.Undercard.HEVC.x265-WH
DescriptionThis is the full broadcast of the Russian Channel “Boets” of the boxing event took place in March 24, 2019 at MGM National Harbor, Oxon Hill, Maryland, USA. The language is Russian, commentaries by Boris Skripko and Roman Grishin. The following fights are included in this broadcast:

1. Anthony Peterson vs. Argenis Mendez;

2. Jamontay Clark vs. Vernon Brown;

3. Sergey Lipinets vs. Lamont Peterson;

General
Complete name                    : 2019-03-24.MGM.National.Harbor.Sergey.Lipinets.vs.Lamont.Peterson.Undercard.HEVC.x265-WH.mp4
Format                          : MPEG-4
Format profile                  : QuickTime
Codec ID                        : qt 
File size                        : 1.56 GiB
Duration                        : 3h 10mn
Overall bit rate                : 1 175 Kbps
Writing application              : Lavf55.33.100

Video
ID                              : 1
Format                          : hev1
Codec ID                        : hev1
Duration                        : 3h 10mn
Bit rate mode                    : Variable
Bit rate                        : 1 042 Kbps
Width                            : 712 pixels
Height                          : 400 pixels
Display aspect ratio            : 16:9
Frame rate mode                  : Constant
Frame rate                      : 25.000 fps
Bits/(Pixel*Frame)              : 0.146
Stream size                      : 1.39 GiB (89%)
Language                        : English

Audio
ID                              : 2
Format                          : AAC
Format/Info                      : Advanced Audio Codec
Format profile                  : LC
Codec ID                        : 40
Duration                        : 3h 10mn
Bit rate mode                    : Constant
Bit rate                        : 128 Kbps
Channel(s)                      : 2 channels
Channel positions                : Front: L R
Sampling rate                    : 44.1 KHz
Compression mode                : Lossy
Stream size                      : 174 MiB (11%)
Language                        : English

1fichier.com

https://shrt10.com/mR8qT

anonfile.com

https://shrt10.com/rxHU

ddl.to

https://shrt10.com/dZm2OoO

dl.free.fr

https://shrt10.com/11Z55Y

filerio.in

https://shrt10.com/9jIrn

filestore.to

https://shrt10.com/vw4Axk

openload.co

https://shrt10.com/h9QAlqp

rapidgator.net

https://shrt10.com/bBb2

uploadgig.com

https://shrt10.com/a64MP9bc

uptobox.com

https://shrt10.com/oZuDl4ZN

WATCH ONLINE 720 VERSION

About PH.M.H

[Wrestling Best Uploader]

View all posts by PH.M.H

Leave a Reply

Your email address will not be published. Required fields are marked *