2019.03.24.Almaty.Arena.Almaty.Kazakhstan-Khabar.TV.HEVC.x265-WH

2019.03.24.Almaty.Arena.Almaty.Kazakhstan-Khabar.TV.HEVC.x265-WH

This is the full broadcast provided by Kazakh TV channel “Khabar TV” of the boxing event took place im March 24, 2019 at Almaty Arena, Almaty, Kazakhstan. The duration of this broadcast is 03:11:58. The language is Kazakh and sometimes Russian (in general – Kazakh). This broadcast includes the following fights:

1. Nursultan Zhangabayev vs. Ivan Matute – vacant World Boxing Association Inter-Continental Welterweight Title;

2. Sadriddin Akhmedov vs. John Ruba – vacant World Boxing Council Asian Boxing Council Super Welterweight Title;

3. Aidos Yerbossynuly vs. Lukas Ndafoluma – vacant World Boxing Association International Super Middleweight Title; World Boxing Council Asian Boxing Council Continental Super Middleweight Title;

Enjoy!!!

General
Complete name : 2019.03.24.Almaty.Arena.Almaty.Kazakhstan-Khabar.TV.HEVC.x265-WH.mp4
Format : MPEG-4
Format profile : QuickTime
Codec ID : qt
File size : 1.71 GiB
Duration : 3h 11mn
Overall bit rate : 1 274 Kbps
Writing application : Lavf55.33.100

Video
ID : 1
Format : hev1
Codec ID : hev1
Duration : 3h 11mn
Bit rate mode : Variable
Bit rate : 1 141 Kbps
Width : 712 pixels
Height : 400 pixels
Display aspect ratio : 16:9
Frame rate mode : Constant
Frame rate : 25.000 fps
Bits/(Pixel*Frame) : 0.160
Stream size : 1.53 GiB (90%)
Language : English

Audio
ID : 2
Format : AAC
Format/Info : Advanced Audio Codec
Format profile : LC
Codec ID : 40
Duration : 3h 11mn
Bit rate mode : Constant
Bit rate : 128 Kbps
Channel(s) : 2 channels
Channel positions : Front: L R
Sampling rate : 44.1 KHz
Compression mode : Lossy
Stream size : 176 MiB (10%)
Language : English

1fichier.com

https://shrt10.com/NlBJOJTC

anonfile.com

https://shrt10.com/C5kR

ddl.to

https://shrt10.com/rM5Pxr

dl.free.fr

https://shrt10.com/btZ0aNWJ

filerio.in

https://shrt10.com/xAPR

filestore.to

https://shrt10.com/eM39n

openload.co

https://shrt10.com/OSPljrsh

rapidgator.net

https://shrt10.com/a8QH

uploadgig.com

https://shrt10.com/AcC9ecm

uptobox.com

https://shrt10.com/X7fhWvcm

Leave a Reply

Your email address will not be published. Required fields are marked *